HDTV The 43rd Annual CMA Awards 1080i HDTV DD5.1 MPEG2-CtrlHD

Discussion in 'Interviews / TV shows / Others' started by CELOBRAZiL, Aug 22, 2019.

  1. CELOBRAZiL

    CELOBRAZiL Well-Known Member Capper V . I . P. Donor

    Joined:
    Oct 2, 2013
    Messages:
    7,616
    Likes Received:
    25,396
    The 43rd Annual CMA Awards 1080i HDTV DD5.1 MPEG2-CtrlHD

    [​IMG]



    Format : MPEG-TS
    File size : 15.5 GiB
    Duration : 2 h 10 min
    Overall bit rate mode : Variable
    Overall bit rate : 17.0 Mb/s
    Movie name : THE 43RD ANNUAL CMA AWARDS

    Video
    ID : 33 (0x21)
    Menu ID : 1 (0x1)
    Format : MPEG Video
    Format version : Version 2
    Format profile : [email protected]
    Format settings : CustomMatrix / BVOP
    Format settings, BVOP : Yes
    Format settings, Matrix : Custom
    Format settings, GOP : M=3, N=15
    Format settings, picture structure : Frame
    Codec ID : 2
    Duration : 2 h 10 min
    Bit rate mode : Variable
    Bit rate : 15.7 Mb/s
    Maximum bit rate : 65.0 Mb/s
    Width : 1 920 pixels
    Height : 1 080 pixels
    Display aspect ratio : 16:9
    Frame rate : 29.970 (30000/1001) FPS
    Color space : YUV
    Chroma subsampling : 4:2:0
    Bit depth : 8 bits
    Scan type : Interlaced
    Scan order : Top Field First
    Compression mode : Lossy
    Bits/(Pixel*Frame) : 0.253
    Time code of first frame : 00:00:00;00
    Time code source : Group of pictures header
    GOP, Open/Closed : Open
    GOP, Open/Closed of first frame : Closed
    Stream size : 14.3 GiB (92%)

    Audio
    ID : 36 (0x24)
    Menu ID : 1 (0x1)
    Format : AC-3
    Format/Info : Audio Coding 3
    Commercial name : Dolby Digital
    Codec ID : 129
    Duration : 2 h 10 min
    Bit rate mode : Constant
    Bit rate : 448 kb/s
    Channel(s) : 6 channels
    Channel layout : L R C LFE Ls Rs
    Sampling rate : 48.0 kHz
    Frame rate : 31.250 FPS (1536 SPF)
    Bit depth : 16 bits
    Compression mode : Lossy
    Stream size : 419 MiB (3%)
    Service kind : Complete Main

    Text #1
    ID : 33 (0x21)-CC1
    Menu ID : 1 (0x1)
    Format : EIA-608
    Muxing mode : A/53 / DTVCC Transport
    Muxing mode, more info : Muxed in Video #1
    Duration : 2 h 10 min
    Bit rate mode : Constant
    Stream size : 0.00 Byte (0%)
    CaptionServiceName : CC1

    Text #2
    ID : 33 (0x21)-CC2
    Menu ID : 1 (0x1)
    Format : EIA-608
    Muxing mode : A/53 / DTVCC Transport
    Muxing mode, more info : Muxed in Video #1
    Duration : 2 h 10 min
    Bit rate mode : Constant
    Stream size : 0.00 Byte (0%)
    CaptionServiceName : CC2

    Text #3
    ID : 33 (0x21)-CC3
    Menu ID : 1 (0x1)
    Format : EIA-608
    Muxing mode : A/53 / DTVCC Transport
    Muxing mode, more info : Muxed in Video #1
    Duration : 2 h 10 min
    Bit rate mode : Constant
    Stream size : 0.00 Byte (0%)
    CaptionServiceName : CC3

    Text #4
    ID : 33 (0x21)-CC4
    Menu ID : 1 (0x1)
    Format : EIA-608
    Muxing mode : A/53 / DTVCC Transport
    Muxing mode, more info : Muxed in Video #1
    Duration : 2 h 10 min
    Bit rate mode : Constant
    Stream size : 0.00 Byte (0%)
    CaptionServiceName : CC4



    Link(s):
    Hidden Content:
    You must either reply or click 'Like' to see the hidden information contained here.
     
    Last edited: Aug 22, 2019
    apl3, Thassyo, EDEKA3 and 5 others like this.
  2. Loading...


  3. CELOBRAZiL

    CELOBRAZiL Well-Known Member Capper V . I . P. Donor

    Joined:
    Oct 2, 2013
    Messages:
    7,616
    Likes Received:
    25,396
    :love::love::love:

    I'm uploading... Just wait! :)
     
    ThePixelFarm and SmartBeens like this.
  4. SmartBeens

    SmartBeens Well-Known Member

    Joined:
    Oct 5, 2014
    Messages:
    1,091
    Likes Received:
    122
    Nice >>> Thanks
     
    CELOBRAZiL likes this.
  5. ThePixelFarm

    ThePixelFarm Livin' in a dream... Capper V . I . P.

    Joined:
    Aug 31, 2018
    Messages:
    1,663
    Likes Received:
    3,289
    Many thanks... :victory::super:
     
    CELOBRAZiL likes this.
  6. CELOBRAZiL

    CELOBRAZiL Well-Known Member Capper V . I . P. Donor

    Joined:
    Oct 2, 2013
    Messages:
    7,616
    Likes Received:
    25,396
    Added GOOGLE DRIVE links! :)
     
    ThePixelFarm likes this.
  7. Thassyo

    Thassyo Well-Known Member

    Joined:
    Oct 9, 2013
    Messages:
    3,237
    Likes Received:
    1,457
    Thanks!
     
    CELOBRAZiL likes this.
  8. multimediafm

    multimediafm Well-Known Member Donor

    Joined:
    Mar 27, 2014
    Messages:
    15,308
    Likes Received:
    1,361
    Thanks:)
     
    CELOBRAZiL likes this.
  9. Jenkins

    Jenkins Well-Known Member

    Joined:
    May 30, 2019
    Messages:
    4,826
    Likes Received:
    60

Visit original Sharemania.us