MOVIE Descendants.3.2019.720p.AMZN.WEB-DL.DDP5.1.H.264-NTG

Discussion in 'Cinema Center' started by Descendants3, Aug 3, 2019.

  1. Descendants3

    Descendants3 New Member

    Joined:
    Aug 3, 2019
    Messages:
    5
    Likes Received:
    14
    [​IMG] [​IMG]
    Code:
    Format                                   : Matroska
    Format version                           : Version 4 / Version 2
    File size                                : 4.54 GiB
    Duration                                 : 1h 46mn
    Overall bit rate                         : 6 110 Kbps
    Encoded date                             : UTC 2019-08-03 07:19:36
    Writing application                      : mkvmerge v21.0.0 ('Tardigrades Will Inherit The Earth') 64-bit
    Writing library                          : libebml v1.3.5 + libmatroska v1.4.8
    
    Video
    ID                                       : 1
    Format                                   : AVC
    Format/Info                              : Advanced Video Codec
    Format profile                           : [email protected]
    Format settings, CABAC                   : Yes
    Format settings, ReFrames                : 4 frames
    Codec ID                                 : V_MPEG4/ISO/AVC
    Duration                                 : 1h 46mn
    Bit rate mode                            : Constant
    Bit rate                                 : 5 468 Kbps
    Nominal bit rate                         : 6 000 Kbps
    Width                                    : 1 280 pixels
    Height                                   : 720 pixels
    Display aspect ratio                     : 16:9
    Frame rate mode                          : Constant
    Frame rate                               : 23.976 (24000/1001) fps
    Color space                              : YUV
    Chroma subsampling                       : 4:2:0
    Bit depth                                : 8 bits
    Scan type                                : Progressive
    Bits/(Pixel*Frame)                       : 0.247
    Stream size                              : 4.06 GiB (89%)
    Default                                  : Yes
    Forced                                   : No
    Color range                              : Limited
    Color primaries                          : BT.709
    Transfer characteristics                 : BT.709
    Matrix coefficients                      : BT.709
    
    Audio
    ID                                       : 2
    Format                                   : E-AC-3
    Format/Info                              : Audio Coding 3
    Format settings, Endianness              : Big
    Codec ID                                 : A_EAC3
    Duration                                 : 1h 46mn
    Bit rate mode                            : Constant
    Bit rate                                 : 640 Kbps
    Channel(s)                               : 6 channels
    Channel positions                        : Front: L C R, Side: L R, LFE
    Sampling rate                            : 48.0 KHz
    Frame rate                               : 187.500 fps (256 spf)
    Compression mode                         : Lossy
    Stream size                              : 487 MiB (10%)
    Language                                 : English
    Default                                  : Yes
    Forced                                   : No
    
    Text #1
    ID                                       : 3
    Format                                   : UTF-8
    Codec ID                                 : S_TEXT/UTF8
    Codec ID/Info                            : UTF-8 Plain Text
    Duration                                 : 1h 46mn
    Bit rate                                 : 60 bps
    Count of elements                        : 1581
    Stream size                              : 47.4 KiB (0%)
    Language                                 : English
    Default                                  : No
    Forced                                   : No
    
    Text #2
    ID                                       : 4
    Format                                   : UTF-8
    Codec ID                                 : S_TEXT/UTF8
    Codec ID/Info                            : UTF-8 Plain Text
    Duration                                 : 1h 46mn
    Bit rate                                 : 66 bps
    Count of elements                        : 1945
    Stream size                              : 51.9 KiB (0%)
    Title                                    : SDH
    Language                                 : English
    Default                                  : No
    Forced                                   : No

    Hidden Content:
    You must reply before you can see the hidden data contained here.
     
    soypablocam123, mileysbae and moszter like this.
  2. sr1002

    sr1002 xxffxx

    Joined:
    Jun 12, 2017
    Messages:
    55
    Likes Received:
    1
    Thanks
     
  3. bobbi6519

    bobbi6519 Member

    Joined:
    Sep 19, 2016
    Messages:
    62
    Likes Received:
    32
    Thanks
     
    Last edited by a moderator: Aug 3, 2019
  4. ZairiZee

    ZairiZee New Member

    Joined:
    Aug 3, 2019
    Messages:
    6
    Likes Received:
    0
    thanks
     
  5. Alexxtg_12

    Alexxtg_12 Member

    Joined:
    Dec 2, 2018
    Messages:
    93
    Likes Received:
    7
  6. moszter

    moszter Member

    Joined:
    Jul 10, 2016
    Messages:
    235
    Likes Received:
    4
    Thank you very much!
     
  7. marios

    marios Active Member

    Joined:
    Jun 13, 2017
    Messages:
    123
    Likes Received:
    53
    thanks
     
  8. aturner18

    aturner18 Well-Known Member

    Joined:
    Oct 2, 2014
    Messages:
    1,852
    Likes Received:
    178
    is remembering Cameron on here?
     
  9. Madleblancxx21

    Madleblancxx21 Member

    Joined:
    Nov 28, 2018
    Messages:
    228
    Likes Received:
    9
  10. OhSnapItzTrey

    OhSnapItzTrey Well-Known Member

    Joined:
    Aug 24, 2016
    Messages:
    557
    Likes Received:
    443
  11. OhSnapItzTrey

    OhSnapItzTrey Well-Known Member

    Joined:
    Aug 24, 2016
    Messages:
    557
    Likes Received:
    443
    No. It was just on the televised version.
     
  12. Bouncer

    Bouncer Active Member

    Joined:
    Jan 5, 2016
    Messages:
    751
    Likes Received:
    32
    tks tks
     
  13. LucasAndrel

    LucasAndrel New Member

    Joined:
    Aug 6, 2018
    Messages:
    12
    Likes Received:
    0
  14. mileysbae

    mileysbae Member

    Joined:
    Dec 16, 2017
    Messages:
    54
    Likes Received:
    1
    wuuu thanks
     
  15. cinimodyeslah123

    cinimodyeslah123 Member

    Joined:
    Apr 17, 2017
    Messages:
    173
    Likes Received:
    13
  16. petrovaslight

    petrovaslight Member

    Joined:
    Jan 20, 2019
    Messages:
    103
    Likes Received:
    1
  17. tkbear

    tkbear Member

    Joined:
    Jun 9, 2017
    Messages:
    54
    Likes Received:
    5
    thanks
     
  18. soypablocam123

    soypablocam123 Member

    Joined:
    Dec 14, 2018
    Messages:
    55
    Likes Received:
    3
  19. Anılcan

    Anılcan Member

    Joined:
    Jun 10, 2019
    Messages:
    45
    Likes Received:
    0
  20. Pham tuan

    Pham tuan Active Member

    Joined:
    Dec 23, 2018
    Messages:
    775
    Likes Received:
    75
    thanks
     

Visit original Sharemania.us